<?xml version="1.0" standalone="no"?>
<!DOCTYPE svg PUBLIC "-//W3C//DTD SVG 1.1//EN" "http://www.w3.org/Graphics/SVG/1.1/DTD/svg11.dtd" >
<svg xmlns="http://www.w3.org/2000/svg">
<metadata></metadata>
<defs>
<font id="brusherregular" horiz-adv-x="1228" >
<font-face units-per-em="2048" ascent="1638" descent="-410" />
<missing-glyph horiz-adv-x="614" />
<glyph horiz-adv-x="0" />
<glyph horiz-adv-x="682" />
<glyph unicode=" "  horiz-adv-x="614" />
<glyph unicode="&#x09;" horiz-adv-x="614" />
<glyph unicode="&#xa0;" horiz-adv-x="614" />
<glyph unicode="!" horiz-adv-x="1249" d="M410 721q0 100 9 209.5t25 271.5q27 236 27 322q0 59 -8 86q6 2 31.5 5t58.5 3q109 0 191.5 -56.5t82.5 -205.5q0 -25 -2 -39q-4 -74 -16 -205q-27 -301 -27 -442q0 -190 45 -219q-16 -50 -95 -88.5t-138 -38.5q-102 0 -143 105.5t-41 291.5zM453 145q6 2 28.5 12.5 t57 18.5t69.5 8q76 0 126 -54t50 -187q0 -55 -4 -86q-96 -20 -164 -21q-74 0 -106.5 25.5t-38.5 61.5t-6 106q0 72 -12 116z" />
<glyph unicode="&#x22;" d="M338 1382q39 29 78 49.5t80 20.5q51 0 79 -51q25 -50 25 -103q0 -78 -49 -152.5t-131 -117.5l-58 31q4 8 15.5 36.5t23 69.5t11.5 82q0 100 -74 135zM588 1382q4 2 54 36t106 34q51 0 79 -51q25 -50 25 -103q0 -78 -49 -152.5t-131 -117.5l-60 31q4 8 15.5 36.5t23 69.5 t11.5 82q0 100 -74 135z" />
<glyph unicode="#" d="M102 811q0 41 55.5 80t198.5 65q20 127 56 297q20 4 26 4q109 0 101 -278q63 4 192 8q4 25 8 41q6 47 33 176q20 4 27 4q96 0 102 -219q51 0 182 -4q10 -25 11 -39q0 -84 -197 -127q-14 -145 -20 -196q61 0 221 -5q8 -18 8 -38q0 -96 -254 -136l-8 -51q-4 -25 -17.5 -118 t-9.5 -121q-2 -2 -13 -6.5t-24 -4.5q-43 0 -74.5 60.5t-33.5 222.5q-131 -8 -195 -10q-2 -16 -14 -101.5t-8 -109.5q-2 -2 -13.5 -6t-23.5 -4q-37 0 -68 47t-39 170q-152 -4 -178 -13q-2 4 -9 17.5t-7 29.5q0 86 196 132q4 88 19 200q-18 0 -103.5 -3t-109.5 -11 q-2 4 -9.5 17.5t-7.5 29.5zM506 608l174 13q2 35 20 172l-174 -11q-12 -123 -20 -174z" />
<glyph unicode="$" d="M246 950q6 137 235 322q6 104 6 184q0 70 -6 109q6 2 26.5 7t47.5 5q61 0 116.5 -39t82.5 -139h16q16 0 49 -4q141 -31 142 -133q0 -29 -15 -72q-23 -68 -41 -159t-18 -130h-88l35 250q0 12 -9 12q-14 0 -53 -24l-45 -29q-102 -72 -152.5 -137.5t-50.5 -120.5 q0 -78 88 -123l52 -27q45 -20 84 -43q102 -59 163.5 -121.5t59.5 -136.5v-2q-6 -135 -232 -317q6 -106 31 -131q-10 -47 -44 -87t-75 -64.5t-69 -24.5q-86 0 -123 176q-31 0 -62 6q-141 31 -141 133q0 27 14 70q25 68 42.5 160t17.5 131h88l-35 -250v-2q0 -10 10 -11 q12 0 41 19l55 35q213 145 213 252q0 72 -98 127l-69 38l-89 50q-96 55 -149 112.5t-51 128.5z" />
<glyph unicode="%" horiz-adv-x="1351" d="M102 1161q0 80 45 150q37 59 95.5 91t119.5 32q59 0 109 -31q45 -29 68.5 -76t23.5 -104q0 -82 -45 -152q-37 -59 -94 -92t-117 -33q-63 0 -110 33q-45 29 -70 77t-25 105zM231 135q0 127 115 350.5t320 561.5q106 178 161.5 276t71.5 152q0 4 50 -15.5t90 -64.5t40 -123 q0 -104 -82 -248l-108 -186q-190 -328 -280.5 -499t-90.5 -239q0 -12 2 -16q-26 -31 -73.5 -47.5t-94.5 -16.5t-67 11q-53 25 -54 104zM745 233q0 88 50 164q41 63 103.5 99t129.5 36q61 0 119 -34q49 -31 75.5 -83.5t26.5 -115.5q0 -86 -49 -164q-41 -63 -103.5 -99 t-129.5 -36q-61 0 -119 35q-49 31 -76 83t-27 115z" />
<glyph unicode="&#x26;" d="M20 319q0 190 85 308t206 182q8 4 29.5 14.5t42.5 18.5q18 6 66 20q-139 63 -248 160.5t-109 232.5q0 41 12 84q31 106 158 107q113 0 332 -92q-2 -6 22 80q16 59 78 59q31 0 65 -12.5t57.5 -25.5t29.5 -17q-6 -6 -15.5 -37t-13.5 -41q-33 -117 -76 -196t-116 -79 q-31 0 -60 15l-10 4q-131 55 -199.5 80.5t-105.5 25.5t-37 -30q0 -27 23 -66q35 -66 104.5 -119t140 -87t70.5 -31l-12 -56q-4 -2 -15.5 -14t-29.5 -35q-12 -14 -25.5 -30.5t-17.5 -22.5q-143 -193 -144 -359q0 -82 35 -157q35 -74 123 -74q59 0 129 34t128 89t83 115 q31 82 39 127q6 16 10 53q-190 -104 -190 -201q0 -18 6 -37q-31 -2 -86.5 28t-97.5 81t-42 108q0 135 254 242q92 39 142 63q47 23 80 43q72 39 98 82t26 78q0 12 -2 20.5t-2 10.5q68 -14 119 -83t51 -146q0 -61 -35.5 -111.5t-109.5 -81.5q-35 -12 -100 -41q2 -16 2 -47 q0 -137 -35 -240q-70 -205 -177.5 -301t-199.5 -116.5t-195 -20.5q-70 0 -147.5 37t-135 135t-57.5 270z" />
<glyph unicode="'" horiz-adv-x="370" d="M51 1419q43 31 80 51.5t78 20.5q55 0 80 -51q24 -50 24 -103q0 -80 -49 -153.5t-131 -118.5l-57 33q4 8 15 35.5t22.5 69.5t11.5 83q0 98 -74 133z" />
<glyph unicode="(" horiz-adv-x="559" d="M0 598q0 51 6 102q33 227 95.5 389t146.5 320q45 82 49 107q201 -25 201 -179q0 -57 -21.5 -122.5t-73.5 -194.5q-45 -109 -70.5 -183.5t-35.5 -144.5q-8 -55 -8 -121q0 -143 42 -264t111 -229q31 -51 31 -103q0 -49 -23.5 -96t-55.5 -75.5t-56 -28.5q-10 0 -16 6 q-33 31 -112 159t-144.5 305t-65.5 353z" />
<glyph unicode=")" horiz-adv-x="559" d="M61 -47q0 57 21.5 122.5t73.5 194.5q45 109 70.5 183.5t35.5 144.5q8 57 8 123q0 143 -42 263t-111 228q-31 49 -31 103q0 49 23.5 96t55.5 76t56 29q10 0 17 -7q33 -31 111.5 -158.5t144 -305t65.5 -355.5q0 -49 -6 -102q-33 -227 -96.5 -390t-145.5 -317 q-45 -82 -49 -106q-201 24 -201 178z" />
<glyph unicode="*" d="M266 928q0 82 142 178q-141 96 -142 168q0 37 33 69q70 -25 215 -86q14 127 35 234q25 4 33 4q106 0 116 -233q88 39 207 81q33 -33 33 -69q0 -72 -141 -168q141 -96 141 -178q0 -23 -9 -39.5t-18.5 -24.5t-13.5 -10q-14 14 -76.5 44t-136.5 63l-4 -41q-12 -139 -12 -164 q0 -23 2 -29q-4 -2 -15.5 -6t-25.5 -4q-45 0 -81 51t-46 184l-64 -28q-47 -20 -84 -40t-47 -30q-4 2 -13 10t-18.5 24.5t-9.5 39.5z" />
<glyph unicode="+" d="M166 492q0 49 72.5 91t267.5 52q2 127 22 338q23 6 37 6q66 0 96.5 -92t36.5 -248q127 -2 338 -23q6 -20 6 -36q0 -66 -92 -96.5t-250 -37.5q0 -43 -4 -116l-2 -140q0 -53 6 -75q-4 -2 -16 -7.5t-29 -5.5q-51 0 -93 74t-52 268q-47 0 -125 5l-141 2q-53 0 -66 -5 q-2 4 -7 16.5t-5 29.5z" />
<glyph unicode="," horiz-adv-x="761" d="M205 270q12 4 55 13.5t90 9.5q86 0 145.5 -43t61.5 -152q0 -65 -10 -102v-12h-2q-43 -168 -223 -271l-50 51q0 -4 26 27t48.5 78t26.5 106q-70 6 -103.5 35t-43 67t-11.5 99q0 10 -2 40t-8 54z" />
<glyph unicode="-" horiz-adv-x="1015" d="M205 524q0 53 65.5 92t233.5 39q117 0 297 -24q10 -25 10 -56q0 -72 -78 -98t-205 -26q-51 0 -141 4q-74 4 -98 4q-39 0 -62 -6q-4 6 -13 26.5t-9 44.5z" />
<glyph unicode="." horiz-adv-x="741" d="M205 289q6 2 28.5 12t57.5 18.5t69 8.5q76 0 125.5 -54.5t49.5 -187.5q0 -55 -5 -86q-96 -20 -163 -20q-74 0 -106 24.5t-38 59t-6 106.5t-12 119z" />
<glyph unicode="/" d="M246 45q0 139 75.5 364.5t206.5 551.5q16 41 62.5 160.5t71 192t28.5 111.5q0 6 59.5 -8t107.5 -63t48 -148q0 -82 -45 -209l-82 -219q-121 -319 -181 -497.5t-60 -253.5q0 -23 6 -35q-27 -45 -83.5 -69.5t-107.5 -24.5q-12 0 -33 4q-74 20 -73 143z" />
<glyph unicode="0" horiz-adv-x="968" d="M0 549q0 78 8 143q18 166 68.5 329t124.5 355q41 106 58 159.5t17 82.5q14 14 78 14q86 0 153.5 -43t67.5 -145q0 -12 -4 -45q-2 -10 -10 -45q14 4 45 4q105 0 188 -82t129 -223.5t46 -315.5q0 -84 -13 -174q-27 -188 -98.5 -342.5t-171.5 -244t-207 -89.5q-23 0 -35 2 q-135 16 -235 103.5t-154.5 231t-54.5 325.5zM356 530q0 -188 57.5 -312t149.5 -124q66 0 130.5 69.5t113.5 191.5t70 270q12 86 12 166q0 188 -56.5 312t-148.5 124q-68 0 -132.5 -70t-113.5 -191.5t-69 -269.5q-12 -86 -13 -166z" />
<glyph unicode="1" horiz-adv-x="864" d="M0 1014q14 6 51 47t82 92q168 197 301 317.5t248 120.5q66 0 117 -53q66 -70 65 -184q0 -16 -6 -97q-43 -596 -43 -897q0 -328 45 -356q-16 -49 -95 -88t-138 -39q-184 0 -185 535q0 205 35 630l-127 -145q-53 -61 -119 -61q-55 0 -106 39.5t-88 87t-37 51.5z" />
<glyph unicode="2" horiz-adv-x="968" d="M102 70q0 -111 110 -152t290 -41q49 0 109.5 3t88.5 3q74 6 129 6q63 0 82 -12q4 8 18.5 38t27 74t12.5 87q0 139 -146 168q-86 18 -184 18q-80 0 -142.5 -10t-131.5 -29q-37 -10 -50 -10q-8 0 -8 4q0 2 10 16q33 43 81 83t130 98q111 78 178.5 137t114.5 144t47 196 q0 213 -194 510q-2 4 -34 51t-92.5 92t-119.5 45q-12 0 -33 -4q-70 -14 -131 -54t-96 -99.5t-29 -126.5q6 -61 24.5 -149.5t37 -157t24.5 -89.5l84 -12q-2 16 -10 76.5t-14 139.5t-2 140q0 16 14 17q20 0 59 -29t68 -65q143 -190 143 -355q0 -82 -34.5 -152.5t-84 -127 t-131.5 -133.5q-109 -104 -162 -177t-53 -161z" />
<glyph unicode="3" horiz-adv-x="1054" d="M61 332q102 115 187 114q51 0 96 -33.5t115 -105.5l45 -47q35 -37 81 -56.5t91 -19.5q84 0 123 60q51 82 51 159q0 115 -87 213.5t-195.5 166t-108.5 59.5l-13 65q0 -4 81 36t161 100.5t121 134.5q27 51 27 73q0 20 -23 21q-23 0 -74 -22.5t-114 -53.5q-27 -12 -69 -32.5 t-99 -45.5q-39 -16 -70 -16q-70 0 -110.5 61.5t-57 130t-16.5 86.5q14 0 54 15.5t87 36.5q135 59 239.5 94t192.5 35q145 0 182 -125q14 -45 15 -95q0 -156 -124 -267t-286 -185q33 -6 76 -25q25 -8 49.5 -19t32.5 -16q139 -73 236.5 -212.5t97.5 -362.5q0 -125 -62.5 -220 t-166 -146.5t-222.5 -51.5t-228.5 53.5t-193.5 165t-121 277.5z" />
<glyph unicode="4" horiz-adv-x="1019" d="M61 922q0 125 23 358q12 152 12 184q0 35 -6 49q0 2 53.5 13.5t104.5 11.5q86 0 141 -41t49 -145q-2 -53 -22 -265q-2 -37 -10.5 -126t-8.5 -144q0 -127 43 -127q27 0 70 43q102 102 141 226t39 241q0 47 -4 80t-6 41q6 2 27.5 4t50.5 2q104 0 183 -53t79 -201 q0 -27 -2 -43q-27 -266 -41 -455.5t-14 -336.5q0 -217 41 -242q-18 -47 -94 -83t-134 -36q-94 -2 -134 126t-40 349q0 145 19 381q-35 -82 -139.5 -146.5t-198.5 -78.5q-8 -2 -25 -2q-109 0 -153 113.5t-44 302.5z" />
<glyph unicode="5" horiz-adv-x="1124" d="M61 92q74 174 187 174q39 0 82 -17.5t112 -53.5l62 -31q37 -18 78 -19q82 0 148.5 70t82.5 195q4 37 4 53q0 160 -119.5 254t-269 137t-149.5 33q-2 4 -10.5 17.5t-18.5 35.5l-2 4v2q-57 129 -58 307q0 41 3 64q8 201 327 201q123 0 320 -31q100 -14 135 -14q16 0 20 2 q2 -6 4 -29t2 -55q0 -94 -36.5 -164t-135.5 -70l-24 2l-117 12q-137 14 -192 15q-78 0 -113 -23.5t-35 -87.5q0 -39 17 -110q264 -41 434 -135.5t247.5 -218.5t77.5 -261q0 -141 -74.5 -269t-199.5 -207t-272 -79q-131 0 -264.5 72t-252.5 225z" />
<glyph unicode="6" horiz-adv-x="987" d="M61 395q0 104 21 207q29 158 87 306.5t148 340.5q8 16 36 76.5t41.5 96.5t13.5 55q14 10 59 10q84 0 157.5 -42t73.5 -138q0 -14 -8 -60q-2 -8 -14 -43q-10 -16 -44 -81.5t-79 -169t-80 -214.5q92 63 176 64q80 0 154 -55q92 -70 138 -174.5t46 -233.5 q0 -150 -61.5 -274.5t-167 -197.5t-228.5 -73q-61 0 -114 19q-166 53 -260.5 206.5t-94.5 374.5zM387 322q0 -137 61.5 -231.5t157.5 -94.5q62 0 119 45t98 124t54 175q6 41 6 80q0 139 -61.5 233.5t-157.5 94.5q-61 0 -119 -45.5t-98.5 -124t-53.5 -175.5q-6 -43 -6 -81z " />
<glyph unicode="7" horiz-adv-x="956" d="M0 1399q0 43 5 80t7 47q10 2 138.5 26.5t300.5 24.5q166 0 293.5 -44t183.5 -149q28 -55 28 -112q0 -39 -9 -74t-19 -61.5t-15 -36.5q-324 -952 -323 -1166q0 -39 10 -49q-23 -33 -80 -51t-117 -18q-33 0 -57 6q-113 27 -113 194q0 131 56.5 318.5t161.5 472.5 q59 158 102 289q25 68 25 94q0 31 -33 31q-27 0 -92 -17q-154 -35 -269 -43q-104 -6 -144 64.5t-40 173.5z" />
<glyph unicode="8" horiz-adv-x="897" d="M0 223q0 274 379 678q-88 78 -131 119t-78 94t-39 109q-10 137 80 207.5t211 90t285 25.5q121 4 145 15l4 -9q41 -82 41 -153q0 -92 -66 -152q-6 -6 -15 -14t-23 -21q-174 -147 -310 -297l56 -43q96 -72 156.5 -127t102.5 -127.5t42 -160.5q0 -205 -256 -492 q-57 -57 -80 -76q-94 -74 -172 -73q-29 0 -51 8q-96 31 -176 128t-99 204q-6 35 -6 67zM172 328q0 -82 33 -119t84 -37q41 0 84 18.5t67 40.5q174 175 174 318q0 82 -48 154.5t-136 150.5q-258 -303 -258 -526zM311 1120q0 -14 11 -35q28 -57 112 -129q121 121 289 258 q-4 -2 -12 -2q-223 -10 -311.5 -30.5t-88.5 -61.5z" />
<glyph unicode="9" horiz-adv-x="925" d="M0 1001q0 150 61.5 275t166 197.5t227.5 72.5q61 0 118 -18q166 -51 259.5 -206t93.5 -380q0 -94 -19 -203q-29 -158 -87 -306t-148 -341q-88 -178 -92 -227q-16 -8 -56 -8q-86 0 -160.5 42t-74.5 138q0 18 8 59l14 43q10 16 44 82t79 169.5t80 211.5q-90 -61 -176 -61 q-80 0 -154 55q-92 70 -138 174t-46 231zM106 928q0 -141 60.5 -236.5t157.5 -95.5q63 0 120.5 45t98.5 124t53 175q6 41 6 78q0 139 -61.5 234.5t-155.5 95.5q-63 0 -121.5 -45.5t-99.5 -124t-53 -174.5q-4 -27 -5 -76z" />
<glyph unicode=":" horiz-adv-x="741" d="M205 412q6 2 28.5 12t57.5 18.5t69 8.5q76 0 125.5 -54.5t49.5 -187.5q0 -55 -5 -86q-96 -20 -163 -21q-74 0 -106 25t-38 59.5t-6 106.5t-12 119zM205 907q6 4 28.5 13.5t57.5 18.5t69 9q76 0 125.5 -54t49.5 -187q0 -55 -5 -86q-100 -20 -163 -21q-74 0 -106 24.5 t-38 59.5t-6 104q0 72 -12 119z" />
<glyph unicode=";" horiz-adv-x="761" d="M205 528q12 4 55 13.5t90 9.5q86 0 145.5 -43t61.5 -152q0 -65 -10 -102v-12h-2q-43 -168 -223 -271l-50 52q0 -4 26 26.5t48.5 77.5t26.5 106q-70 6 -103.5 35t-43 67t-11.5 99q0 10 -2 40t-8 54zM205 1008q6 4 28.5 13t57.5 18.5t69 9.5q76 0 125.5 -54.5t49.5 -187.5 q0 -55 -5 -86q-100 -20 -163 -21q-74 0 -106 25t-38 59.5t-6 104.5q0 72 -12 119z" />
<glyph unicode="&#x3c;" d="M205 494q0 -49 31 -99q69 -110 168.5 -201.5t202 -142.5t177.5 -51q55 0 92 56.5t53.5 124t10.5 87.5q-66 14 -200 50t-214 63q-88 29 -88 65q0 37 92.5 83t286.5 122q109 41 109 144q0 47 -20.5 97t-43 85t-31.5 43q-12 -12 -122 -72q-141 -76 -242.5 -138t-181.5 -146 t-80 -170z" />
<glyph unicode="=" d="M266 623q0 57 76 100t276 43q141 0 343 -27q6 -20 6 -39q0 -74 -93.5 -102.5t-244.5 -28.5q-18 0 -191 6q-90 4 -112 5q-39 0 -50 -5q-2 5 -6 18t-4 30zM272 258q0 55 75 98t276 43q137 0 342 -26q6 -20 6 -39q0 -74 -92.5 -101.5t-241.5 -27.5q-14 0 -193 6 q-90 4 -112 4q-39 0 -49 -4q-2 4 -6.5 17.5t-4.5 29.5z" />
<glyph unicode="&#x3e;" d="M248 750q63 -14 198.5 -49t215.5 -62q88 -29 88 -66t-92.5 -84t-288.5 -120q-109 -41 -109 -142q0 -49 21.5 -99t44 -85t30.5 -43q18 18 121 70q139 74 241.5 137t183.5 147t81 172q0 49 -31 99q-69 110 -168.5 199t-200 141.5t-177.5 54.5q-57 0 -94.5 -55.5t-53.5 -125 t-10 -89.5z" />
<glyph unicode="?" horiz-adv-x="1081" d="M137 1462q0 31 2 50.5t4 25.5q6 -2 21 -2q33 0 172 23q256 45 405 45q340 0 340 -220q0 -78 -35.5 -144t-89 -119.5t-149.5 -135.5q-66 -55 -129 -117q-88 -86 -88 -157q0 -57 54 -91t130 -36q80 -2 109.5 -53.5t29.5 -120.5q0 -27 -2 -45.5t-4 -24.5q-14 0 -80 -8 q-96 -14 -139 -15q-98 0 -171 46.5t-109 166.5q-12 47 -13 86q0 84 46 154t107.5 118t149.5 103q80 53 97 70q61 61 61 106q0 41 -53 61.5t-150 20.5q-113 0 -280 -28q-18 -4 -54 -4q-104 0 -143 74.5t-39 170.5zM489 123q7 4 29.5 13t57 18.5t69.5 9.5q76 0 125 -54.5 t49 -187.5q0 -55 -4 -86q-100 -20 -164 -20q-74 0 -105.5 24.5t-37.5 59t-6 104.5q0 72 -13 119z" />
<glyph unicode="@" horiz-adv-x="1345" d="M0 520q0 162 89 300t235.5 220t312.5 82t305 -80.5t220 -219t81 -302.5q0 -150 -65 -274q-41 -80 -130.5 -130t-191.5 -50q-168 0 -168 282q0 39 2 60q-51 -49 -104.5 -78t-120.5 -29q-86 0 -130 43t-44 111q0 63 38 128.5t101 106.5q92 59 213 60q43 0 84 -9q2 20 2 60 q0 41 -6 65q6 2 25.5 4t48.5 2q88 0 153.5 -43t65.5 -157q0 -27 -2 -41q-8 -76 -8 -154q0 -104 18 -161.5t49 -57.5q43 0 86 98q20 78 21 148q0 139 -65.5 258t-178.5 188.5t-244 69.5q-133 0 -253 -69.5t-191.5 -188.5t-71.5 -258t71.5 -257t191.5 -187.5t253 -69.5 q31 -4 43.5 -18.5t12.5 -29t-3 -18.5q0 -2 -24.5 -4t-93.5 -2q-158 0 -303.5 83t-234.5 221t-89 298zM487 504q0 -66 48 -66q33 0 82 31t88 74l12 106q-76 0 -153 -29.5t-77 -115.5z" />
<glyph unicode="A" horiz-adv-x="901" d="M-205 -225q281 1769 756 1769q12 0 61 -6q10 0 27 -4h4q162 -39 166 -264v-8v-5v-2v-22q-14 -397 -14 -604q0 -530 65 -568q-12 -37 -54 -70.5t-94.5 -54t-86.5 -20.5q-178 0 -179 473q0 90 7 182q-41 4 -60 4l-69 7q-45 4 -68 4l-33 4l-30 2l-58 6l-12 2 q-18 -137 -37 -303q-23 -190 -35 -268t-26 -109q-16 -55 -93 -99t-137 -46zM137 698q6 0 10 -2l56 -6l30 -4l33 -4l66 -6q25 -4 69 -8q38 -4 56 -4l14 192l6 70q16 152 17 254q0 194 -63 194h-1q-193 0 -293 -676z" />
<glyph unicode="B" horiz-adv-x="1050" d="M0 416q0 137 9 278.5t28 374.5q2 37 13 173t11 214q0 68 -8 94q6 2 33 5.5t59 3.5q109 0 191 -55.5t82 -205.5q0 -25 -2 -38l-13 -189q53 117 125 190.5t160 73.5q70 0 104.5 -43t34.5 -118q0 -98 -55 -227.5t-149 -241.5q49 12 108 12q119 0 178.5 -57.5t59.5 -153.5 q0 -78 -37 -167t-105 -171q-240 -287 -643 -287q-102 0 -143 143.5t-41 391.5zM373 360q0 -324 45 -352q0 -1 1 -1q11 -1 115 61q116 68 206 174q87 101 87 228v11q-6 100 -127 101q-74 0 -167 -38t-160 -93v-91zM379 614q84 59 154.5 163t110.5 212.5t40 179.5q0 78 -47 78 q-84 0 -154.5 -219t-103.5 -399v-15z" />
<glyph unicode="C" horiz-adv-x="798" d="M0 473q0 84 10 211q27 319 108 509.5t182 267.5t200 77q63 0 104 -27q115 -72 115 -282q0 -121 -39 -307l-59 45q2 10 6 47t4 78q0 66 -16.5 111.5t-55.5 47.5h-4q-51 0 -111 -90q-62 -94 -92 -450q-10 -137 -10 -219q0 -184 35 -271.5t98 -87.5q72 0 169 98.5t204 264.5 l57 -29q-157 -274 -321 -423.5t-297 -149.5q-131 0 -209 147t-78 432z" />
<glyph unicode="D" horiz-adv-x="763" d="M0 436q0 137 9 278.5t28 375.5q2 37 13 173t11 214q0 68 -8 94q6 2 33 5t59 3q109 0 191 -55.5t82 -204.5q0 -25 -2 -39q0 -20 -2 -33q88 109 190 109l23 -2q67 -8 102 -103.5t35 -246.5q0 -203 -59.5 -438.5t-170 -416t-253.5 -227.5q-57 -20 -97 -20q-102 0 -143 143 t-41 391zM373 383q0 -227 22 -309q72 74 123 229.5t78 340.5t27 343q0 125 -17.5 202t-50.5 79h-5q-64 0 -98 -102q-36 -106 -51.5 -224.5t-15.5 -150.5q-12 -283 -12 -408z" />
<glyph unicode="E" horiz-adv-x="823" d="M0 455q0 227 39 671q18 217 20 269q4 111 92.5 154.5t233.5 43.5q72 0 157 -9t156 -19q104 -14 140 -15q18 0 24 2q2 -6 4 -28.5t2 -55.5q0 -94 -34.5 -163.5t-126.5 -69.5q-23 0 -35 2q-184 27 -258 31q-16 -180 -29 -416q16 -6 49 -14l29 -7q4 -2 12 -2l12 -4l25 -2 q4 -2 10 -2q8 0 10 -2h11h8h14h8h2l9 -82h-4l-13 -2h-16h-10h-13h-12h-12l-29 4h-14q-4 2 -15 2l-30 7l-35 6q-8 -156 -8 -338q0 -209 16 -299q14 -82 74 -82q70 0 185.5 115.5t228.5 291.5l57 -28q-152 -266 -324 -410.5t-317 -144.5q-135 0 -213 123q-80 119 -80 473z" />
<glyph unicode="F" horiz-adv-x="663" d="M0 414q0 227 39 671q18 217 20 269q4 111 92.5 154.5t233.5 43.5q72 0 157 -9t156 -19q104 -14 140 -15q18 0 24 2q2 -6 4 -28.5t2 -55.5q0 -94 -34.5 -163.5t-126.5 -69.5q-23 0 -35 2q-184 27 -258 31q-16 -233 -27 -404q59 -14 119 -22l41 -6l39 -7l18 -4q12 0 19 -2 q12 0 16 -2h16l15 -2h12h20h9h4h4l8 -82h-6q-4 0 -6 -2h-10h-25h-14h-17q-10 0 -16 2h-19l-18 2q-14 0 -21 2q-12 0 -40 5l-43 4l-111 16q-8 -164 -8 -354q0 -336 45 -363q-18 -51 -97 -89t-139 -38q-182 0 -182 533z" />
<glyph unicode="G" horiz-adv-x="956" d="M-2 590q0 76 4 115q29 317 120 508.5t204.5 268.5t220.5 77q68 0 108 -27q55 -35 84 -90.5t29 -159.5q0 -119 -37 -295l-61 45q2 8 6 41t4 68q0 129 -80 129q-68 0 -142.5 -105.5t-111.5 -433.5q-14 -117 -14 -225q0 -195 44 -295t107 -100q41 0 78 41t59.5 116.5 t22.5 173.5q0 90 -20 191q73 29 122 29q82 0 121 -61.5t48.5 -150t11.5 -225.5q2 -129 11 -197.5t40 -95.5q-8 -8 -39 -30.5t-76 -44t-86 -21.5q-106 0 -125 164q-4 29 -4 80q0 27 3 60.5t3 49.5q4 41 4 60q-41 -158 -115.5 -237t-164.5 -79q-94 0 -181 82t-142.5 231.5 t-55.5 342.5z" />
<glyph unicode="H" d="M0 457q0 137 9 278.5t28 374.5q2 37 13 173t11 214q0 68 -8 94q6 2 33 5t59 3q109 0 191 -55t82 -205q0 -25 -2 -39q-16 -227 -27 -421l35 -9l149 -28l41 -6l41 -7l19 -4q12 0 18 -2q10 0 17 -2h14l16 -2h13h12l18 221q2 37 13.5 169t11.5 208q0 66 -8 92q6 2 32.5 5.5 t59.5 3.5q109 0 190.5 -55.5t81.5 -205.5q0 -25 -2 -38q-20 -281 -32.5 -498t-12.5 -402q0 -324 47 -352q-18 -51 -97 -89t-138 -38q-184 0 -185 539q0 145 15 356h-8h-15h-16q-10 0 -17 2h-18l-20 2q-12 0 -19 2q-14 0 -43 4l-41 5l-155 22q-16 4 -23 4q-10 -215 -10 -370 q0 -328 45 -357q-16 -51 -95 -89t-139 -38q-102 0 -143 143.5t-41 391.5z" />
<glyph unicode="I" horiz-adv-x="512" d="M0 416q0 137 9 278.5t28 374.5q2 37 13 173t11 214q0 68 -8 94q6 2 33 5.5t59 3.5q109 0 191 -55.5t82 -205.5q0 -25 -2 -38q-43 -596 -43 -898q0 -326 45 -354q-17 -51 -95.5 -89t-138.5 -38q-102 0 -143 143.5t-41 391.5z" />
<glyph unicode="J" horiz-adv-x="839" d="M0 1380q0 39 5 72t7 43q12 -4 29 -4q33 0 109 10q20 2 88.5 9.5t130.5 7.5q147 0 241.5 -54.5t102.5 -195.5v-21q2 -57 10 -219l14 -362q45 10 211 22q145 14 148 14l16 -79q-16 -5 -149 -17q-176 -18 -207 -26q-8 -4 -17 -5l2 -116q0 -324 -46 -513q-45 -184 -156 -184 h-7q-41 4 -92 23l-8 4q-41 14 -51 21q-57 29 -94 57q-43 31 -82 74q-33 37 -68 84q-25 37 -53 94l-2 6l-2 4v2l-2 2l-4 8v4q-8 14 -11 29q-8 27 -8 64q0 39 8 65q8 29 27 57q16 29 37 50q12 14 41 39q29 23 90 59q41 20 94 45q23 8 29 10l2 156q0 246 -16 465l-134 -10 l-49 -5q-14 -1 -27 -1q-82 0 -117 54q-40 64 -40 158zM172 240q0 -14 6 -33l6 -17v-2h2v-4h2v-2l2 -4v-2l5 -4q18 -37 45 -76q20 -29 32 -43h1t1 -2h2q22 -26 42 -26h1q27 0 33 49v6q0 4 2 6q14 137 25 365q-45 -23 -68 -37q-37 -20 -71 -52q-35 -31 -52 -59q-8 -14 -12 -31 q-4 -10 -4 -32z" />
<glyph unicode="K" horiz-adv-x="983" d="M0 436q0 137 9 278.5t28 375.5q2 37 13 173t11 214q0 68 -8 94q6 2 33 5t59 3q109 0 191 -55.5t82 -204.5q0 -25 -2 -39l-21 -297q45 70 118 130.5t181 135.5q8 6 54.5 38t56.5 50q0 4 43 -33.5t76.5 -87t33.5 -102.5q0 -74 -77 -129q-35 -27 -64 -47t-51 -37 q-80 -55 -114 -84t-50 -57.5t-16 -71.5q0 -18 4 -63v-11v-8q4 -49 8 -80q8 -76 14 -108q12 -74 23 -111q4 -18 16 -55q12 -33 21 -47q8 -12 10 -19l6 -6q0 -2 1 -2h1v-2h2v-2l4 -2h2v-2q4 0 7 -2h12q18 0 39 12q29 16 43 29l39 35l36 39q27 33 62 77l49 70l35 55 q18 33 20 37l9 13l47 -23l-6 -14l-19 -41l-31 -60q-10 -20 -43 -78q-25 -45 -57 -88q-2 -4 -35 -47q-12 -16 -43 -47q-18 -20 -53 -45l-33 -18q-12 -6 -41 -15q-33 -4 -49 -2l-27 6l-12 5l-6 4l-4 2h-2v2h-4l-4 4l-6 2q-4 4 -5 4q-12 6 -18 14q-6 4 -31 29q-25 31 -43 61 q-31 51 -35 60q-25 51 -51 121q-8 18 -41 112q-23 76 -22 74q-2 -55 -2 -162q0 -340 45 -366q-16 -51 -95 -89t-139 -38q-102 0 -143 143t-41 391zM692 174z" />
<glyph unicode="L" horiz-adv-x="950" d="M27 416q0 137 9 278.5t27 374.5q2 37 13.5 173t11.5 214q0 68 -8 94q6 2 32.5 5.5t59.5 3.5q109 0 190.5 -55.5t81.5 -205.5q0 -25 -2 -38q-45 -555 -45 -904q0 -111 6 -194q135 59 256 100q53 18 93 19q86 0 130 -61.5t56 -125t12 -90.5q-31 0 -162 -51 q-133 -51 -241.5 -83t-206.5 -32q-119 0 -190 60q-123 78 -123 518z" />
<glyph unicode="M" horiz-adv-x="1462" d="M12 391q0 225 39 662q2 35 13.5 173t11.5 214q0 63 -8 88q6 2 32.5 5t59.5 3q109 0 190.5 -55.5t81.5 -204.5q0 -25 -2 -39q-25 -281 -31 -633l29 113l33 119q4 20 16 61l19 64l8 32q8 20 10 31l12 33l15 35q4 12 8 18q2 6 10 18l10 11l15 12q6 6 14 6q2 2 10 2h4h4 q10 0 19 -4q8 -4 12 -8q10 -6 12 -12q4 -4 9 -13q4 -8 8 -20q10 -18 12 -35q14 -55 17 -70l12 -69q8 -47 20 -137l11 -70l10 -68l6 -49l8 51l19 127q6 37 22 123l29 115q29 84 37 104q14 41 45 95q23 41 57 79q35 35 66 52l6 4q33 16 75 24q4 0 7 2q4 0 18 2t35 2 q84 0 152.5 -49t70.5 -184v-6v-4v-2v-21q-14 -340 -14 -522q0 -457 65 -492q-12 -31 -55 -59.5t-95 -45.5t-85 -17q-178 0 -178 411q0 188 41 537q14 137 24 264q2 29 -8 43t-29 14q-23 0 -45 -14t-37 -35q-8 -12 -10 -18q-27 -43 -43 -84q-37 -84 -63 -209 q-16 -78 -23 -119q-12 -61 -18 -125l-19 -131q0 -10 -4 -35l-4 -18q0 -2 -4 -10q0 -6 -2 -9l-2 -4l-2 -2l-2 -4l-4 -4l-9 -6q-4 -4 -12 -4h-12q-4 2 -10 4l-7 4l-6 6l-6 8l-2 7l-6 10l-2 10l-10 35l-15 69l-10 68l-22 137l-23 135l-14 68q-6 27 -17 63q-4 -12 -4 -14 l-10 -31l-6 -30q-4 -10 -8 -31q-20 -109 -39 -244l-29 -223l-22 -186l-23 -146l-4 -26q-4 -20 -4 -27q-2 -4 -8 -39q0 -10 -2 -14v-2q-20 -98 -99.5 -135t-156.5 -37q-184 0 -185 532z" />
<glyph unicode="N" d="M0 414q0 137 9 278.5t28 374.5q2 37 13 173t11 214q0 70 -8 96q6 2 32 5.5t58 3.5q109 0 192 -56.5t83 -206.5q0 -25 -2 -39q-37 -492 -43 -843q109 590 268.5 791.5t321.5 201.5q31 0 43 -2l26 -4h4q162 -35 166 -230v-6v-4v-2v-18q-14 -345 -14 -531q0 -451 63 -483 q-12 -33 -55 -61.5t-94 -46t-86 -17.5q-96 0 -136 110.5t-40 303.5q0 168 24 399l4 45q16 131 17 232q0 172 -66 172q-100 -4 -166.5 -148.5t-103.5 -335t-72 -454.5q-14 -111 -29.5 -202t-29.5 -118q-16 -51 -95 -89t-139 -38q-102 0 -143 143.5t-41 391.5z" />
<glyph unicode="O" horiz-adv-x="960" d="M0 551q0 78 8 143q18 164 66.5 320.5t126.5 361.5q41 106 58 159.5t17 82.5q14 14 78 14q86 0 153.5 -43t67.5 -145q0 -12 -4 -45l-10 -45q25 6 53 6q18 0 29 -2q96 -15 170 -99.5t115 -221t41 -298.5q0 -84 -13 -174q-27 -188 -98.5 -342.5t-171.5 -244t-207 -89.5 q-23 0 -35 2q-135 16 -235 102.5t-154.5 231t-54.5 326.5zM356 530q0 -190 57.5 -313t151.5 -123q41 0 84 30t80 83q-47 45 -116.5 142t-132 224t-87.5 256q-16 -66 -24 -131q-12 -86 -13 -168zM547 954q0 -182 66.5 -383.5t162.5 -285.5q72 141 101 340q12 86 12 166 q0 180 -51.5 301.5t-137.5 134.5q-6 2 -18 2q-10 0 -16 -2q-59 -12 -89 -86t-30 -187z" />
<glyph unicode="P" horiz-adv-x="765" d="M0 406q0 137 9 275t28 376q2 33 13 170t11 215q0 70 -8 96q6 2 32 5t58 3q109 0 192 -55t83 -205q0 -25 -2 -39l-13 -188q55 117 126 189.5t157 72.5q70 0 105.5 -44t35.5 -120q0 -100 -58 -232t-161.5 -253t-232.5 -193q-2 -47 -2 -137q0 -319 45 -348q-16 -49 -95 -88 t-137 -39q-102 0 -144 144.5t-42 394.5zM379 600q84 59 154.5 161.5t110.5 211t40 180.5q0 37 -12.5 58.5t-36.5 21.5q-82 0 -152.5 -218t-103.5 -399v-16z" />
<glyph unicode="Q" horiz-adv-x="1044" d="M0 535q0 78 8 143q18 164 66.5 320.5t126.5 361.5q41 106 58 159.5t17 82.5q14 14 78 14q86 0 153.5 -43t67.5 -143q0 -12 -4 -46q-2 -14 -10 -47q25 6 53 6q18 0 29 -2q96 -14 170 -99t115 -221t41 -298q0 -84 -13 -174q-25 -170 -88 -322q59 -141 92 -208.5t68 -102.5 q31 -31 69 -31h9q1 -7 1 -14q0 -45 -33 -97q-38 -61 -113 -89q-39 -12 -74 -13q-88 0 -138.5 66.5t-99.5 193.5q-84 -59 -170 -59q-23 0 -35 2q-135 16 -235 102t-154.5 230.5t-54.5 327.5zM356 516q0 -180 52.5 -302t138.5 -134l16 -2q8 0 25 4q-53 117 -123 156 q27 63 91.5 119.5t131.5 56.5q72 0 121 -70q49 127 68 264q12 86 12 166q0 125 -25.5 224.5t-73 156.5t-106.5 57q-68 0 -133.5 -69.5t-113.5 -191.5t-68 -269q-12 -86 -13 -166z" />
<glyph unicode="R" horiz-adv-x="921" d="M0 389q0 137 9 275.5t28 375.5q2 33 13 170.5t11 214.5q0 70 -8 97q6 2 33 5t59 3q109 0 191 -55.5t82 -204.5q0 -25 -2 -39l-13 -189q53 117 125 190t158 73q72 0 106.5 -44t34.5 -120q0 -92 -50 -212t-140 -234.5t-203 -192.5q18 -49 43 -109q27 -57 35 -74 q20 -41 45 -77q20 -33 57 -74l19 -16l8 -7l8 -6l2 -2h2v-2h2h2v-2l9 -2q4 -2 16 -2q18 0 37 8l39 23q33 27 67 65q6 8 60 72l47 70q18 29 37.5 61.5t27.5 46.5l17 31l6 10l45 -22l-4 -13l-17 -32q-23 -43 -65 -113q-14 -27 -47 -74q-25 -37 -60 -78q-39 -45 -75 -75 q-18 -16 -49 -33q-20 -8 -31 -10q-14 -6 -35 -7q-12 0 -37 4l-16 7l-2 2h-2l-2 2h-2l-3 2h-2l-2 2q-6 2 -9 4t-5 4l-12 8l-23 19q-29 25 -41 39q-33 39 -35 41q-35 45 -57 81l-45 76l-14 29v-54q0 -319 45 -348q-16 -49 -95 -88t-137 -39q-102 0 -144 144.5t-42 394.5z M379 586q84 57 154.5 160.5t110.5 212t40 182.5q0 78 -47 78q-84 0 -154.5 -219.5t-103.5 -399.5v-14z" />
<glyph unicode="S" horiz-adv-x="792" d="M0 -16q0 178 172 188q223 10 311 30.5t88 61.5q0 14 -10 35q-29 53 -80 100t-141 117q-96 74 -155.5 127t-100.5 126t-41 159q0 205 256 491q57 57 80 76q94 74 172 74q29 0 51 -8q137 -43 137 -189q0 -45 -12 -98q-25 -94 -42 -223t-17 -185h-84q2 35 11 137.5t21 215.5 q4 18 -8 18q-18 0 -96 -78q-184 -184 -184 -338q0 -94 55 -172t164 -186q96 -92 146 -158.5t57 -142.5q1 -16 1 -31q0 -114 -79 -177q-90 -71 -211 -90.5t-285 -25.5q-123 -4 -147 -14q-2 6 -9.5 29.5t-13.5 58.5t-6 72z" />
<glyph unicode="T" horiz-adv-x="921" d="M0 1384q0 102 92 143.5t254 41.5q86 0 179 -8.5t239 -26.5q209 -27 293 -27q55 0 82 9q2 -7 5 -32.5t3 -58.5q0 -109 -56.5 -191.5t-205.5 -82.5q-25 0 -39 2l-72 6q-37 -520 -37 -811q0 -324 45 -352q-16 -49 -95 -88t-136 -39q-102 0 -144 143.5t-42 393.5 q0 141 9 287.5t27 385.5q8 80 11 113q-86 4 -115 4q-72 0 -114 -10t-56 -35q-49 16 -88 96t-39 137z" />
<glyph unicode="U" d="M0 453q0 133 9 268t28 364q2 33 13 166t11 209q0 68 -8 94q6 2 33 5.5t59 3.5q109 0 191 -55.5t82 -204.5q0 -25 -2 -39q-41 -563 -41 -871q0 -180 14 -272q8 -39 28.5 -60.5t49.5 -21.5q57 0 129 80t133.5 238.5t89.5 381.5q8 68 17.5 188t9.5 212q0 96 -10 129 q6 2 32.5 5t59.5 3q109 0 190.5 -55.5t81.5 -204.5q0 -25 -2 -39q-8 -129 -14 -180q-29 -356 -29 -506q0 -211 45 -240q-16 -49 -96 -87t-137 -38q-90 0 -133 105.5t-50 294.5q-68 -240 -190.5 -361t-257.5 -121q-74 0 -138.5 35t-111.5 101q-86 113 -86 473z" />
<glyph unicode="V" horiz-adv-x="987" d="M0 1415l28.5 9.5t57.5 14.5t72 7q94 0 164.5 -57.5t83.5 -200.5q27 -291 60.5 -520.5t82.5 -378.5q20 -51 55 -51q63 0 137 164.5t125.5 463.5t51.5 680l-3 121v6q0 16 11 19q4 2 14 2q14 0 26.5 -4t16.5 -7q4 -156 4 -223q0 -498 -70.5 -827.5t-185.5 -485t-246 -155.5 q-113 0 -213 106q-96 100 -139 330.5t-74 583.5q-16 176 -28.5 269t-30.5 134z" />
<glyph unicode="W" horiz-adv-x="1529" d="M-102 1495q0 2 51 13.5t102 11.5q104 0 177 -56.5t79 -197.5q29 -743 86 -1035q10 -47 29 -47q14 0 33 25v-1q3 0 42 92q42 101 74.5 244.5t32.5 311.5q0 109 -18 227l12 -28q-4 12 -12 28q6 2 32.5 11.5t66.5 17.5t83 8q92 0 159.5 -52t84.5 -183q45 -389 100 -584 q2 -2 2 -8q12 -43 45 -43q35 0 70 65l12 27q0 4 2 6l2 6q27 57 51 144q25 100 35 188q10 82 10 205q0 113 -14 211q-6 53 -18 104q-2 14 -11 43l-8 2l-43 6q-27 6 -47 15q-33 12 -47 22q-25 12 -47 35q-27 31 -35 51q-13 29 -13 55q0 9 1 17q0 14 8 39q10 20 25 35 q12 16 34 26q12 6 41 11h21h10l4 -2h4h2h2l2 -2h5h2l10 -5l18 -8q14 -8 29 -22q14 -8 24 -23q14 -18 35 -51q31 -51 49 -109q2 -2 2 -6h19q53 2 111 11l71 14q8 0 10 2q6 0 9 2h6l20 -80h-8q-2 -2 -8 -2q-2 -2 -5 -2t-5 -2l-76 -16q-109 -14 -117 -15q4 -8 4 -16 q10 -39 23 -113q22 -122 22 -269v-13q0 -84 -6 -164q-8 -90 -33 -205q-29 -113 -59 -180q-39 -86 -80 -146q-37 -53 -86 -98q-14 -14 -68 -53q-16 -8 -20 -13l-6 -4v2q-57 -35 -96 -43q-29 -4 -39 -4q-115 0 -180.5 144.5t-102.5 384.5q-43 -158 -147.5 -325t-284.5 -202 l-23 -4q-6 -2 -20 -2q-111 0 -168 167t-76.5 392.5t-29.5 554.5q-8 231 -14.5 324.5t-24.5 132.5zM1158 1436q0 -10 1 -17q6 -12 17 -22q16 -16 26 -23q6 -4 31 -14q6 -4 17.5 -7t17.5 -5q-18 43 -23 49q-12 23 -24 37q-14 16 -25 22l-4 2q-2 0 -2 1v1h-2h-2h-2h-2 q-2 2 -6 2q-2 -2 -9 -2l-4 -4q-6 -2 -5 -14v-6z" />
<glyph unicode="X" horiz-adv-x="1021" d="M0 -2l2 4l6 14l25 52q4 10 37 75l49 99l61 116l72 127l80 136q4 4 20 32l17 27q-25 68 -101 307q-70 215 -102.5 305t-59.5 125q8 6 39 23.5t79 34t98 16.5q164 0 231 -203q35 -115 78 -229q8 12 14 18l10 15l7 6l6 8l20 27l23 26l20 27l23 24q12 16 20 25l19 22l18 21 l37 39l8 8l8 10l15 15l28 28l54 54l57 -60l-49 -51l-27 -29l-14 -16l-6 -8l-9 -11l-32 -38l-19 -21q-4 -8 -16 -24l-21 -23l-18 -25q-18 -25 -21 -26l-18 -27l-20 -29l-7 -6l-4 -8q-8 -8 -10 -14q-8 -8 -20 -29l-7 -8l-6 -6q0 -2 -10 -17l-12 -18q264 -754 350 -766 q2 -53 -53.5 -117.5t-110.5 -89.5q-20 -10 -49 -10q-96 0 -191.5 154.5t-193.5 418.5q-35 -61 -55 -106q-16 -29 -66 -127l-55 -115l-45 -98l-17 -39l-16 -39q-12 -25 -20 -49l-9 -16z" />
<glyph unicode="Y" horiz-adv-x="974" d="M0 881q0 90 14.5 185t42.5 237q12 57 21.5 107t9.5 75q0 14 -2 18q6 2 30.5 4t57.5 2q98 0 171 -38.5t73 -143.5q0 -10 -4 -43l-25 -158q-4 -29 -21.5 -141.5t-17.5 -163.5q0 -53 19 -53q18 0 67 70q86 123 134 280.5t65.5 279.5t17.5 150q0 3 12 3q20 0 77 -9 q89 -14 161 -69.5t72 -169.5q0 -49 -14 -105q-229 -918 -230 -1157q0 -63 17 -78q-23 -39 -89.5 -62.5t-130.5 -23.5q-20 0 -28 2q-125 16 -125 258q0 211 102 635q-117 -190 -276 -190q-201 8 -201 299z" />
<glyph unicode="Z" horiz-adv-x="1011" d="M0 1368q0 31 2 54.5t4 29.5q4 -2 21 -2q33 0 168 23q129 23 223 35t184 12q156 0 248 -52.5t92 -179.5q0 -111 -59.5 -210t-142.5 -178t-224 -191q-152 -123 -232.5 -204t-115.5 -169q-8 -25 -8 -35q0 -41 44 -63.5t124 -22.5q156 0 381 80q43 16 88 16q90 0 137 -69.5 t62.5 -142t15.5 -99.5q-25 0 -152 -33q-152 -39 -267.5 -62.5t-225.5 -23.5q-281 0 -349 185q-2 4 -6 24.5t-4 48.5q0 135 109 289q43 63 121.5 138t197.5 177q68 59 130.5 118t88.5 93q55 72 56 117q0 84 -183 84q-109 0 -295 -33q-18 -4 -53 -4q-104 0 -142 75t-38 175z " />
<glyph unicode="[" horiz-adv-x="970" d="M287 494q0 156 10 321.5t31 405.5q4 70 9 134t9 122q4 111 63.5 155.5t155.5 44.5q84 0 211 -28q90 -16 109 -17q14 0 18 2q2 -6 4 -26.5t2 -46.5q0 -82 -32.5 -142.5t-120.5 -60.5q-31 0 -84 12q-37 10 -60 10q-35 0 -56 -33.5t-30 -123.5q-33 -524 -32 -783l2 -100 q8 -96 30.5 -133t61.5 -37q27 0 74 14l49 13q33 4 47 4q84 0 115.5 -56.5t31.5 -134.5q0 -29 -3 -51t-5 -29q-4 2 -16 2q-23 0 -60 -9t-47 -11q-131 -35 -203 -35q-203 0 -252 221l3 4q-35 145 -35 392z" />
<glyph unicode="\" d="M205 1430q4 4 23.5 17t51 25.5t68.5 12.5q72 0 142.5 -64.5t125.5 -220.5l80 -223q135 -383 215 -577.5t131 -213.5q2 -8 2 -24q0 -59 -36.5 -118.5t-75.5 -76.5q-16 -8 -35 -8q-80 0 -167 146.5t-164 347t-179 501.5q-70 209 -110.5 317.5t-71.5 158.5z" />
<glyph unicode="]" horiz-adv-x="684" d="M61 1479q0 -82 33 -142.5t119 -60.5q31 0 84 12q37 10 59 10q37 0 57.5 -33.5t28.5 -123.5q33 -475 33 -807v-76q-8 -96 -30.5 -133t-63.5 -37q-27 0 -74 14l-49 13q-33 4 -45 4q-84 0 -115.5 -57.5t-31.5 -135.5q0 -31 2 -51t4 -27q4 2 16 2q20 0 107 -20 q131 -35 204 -35q203 0 252 221l-4 4q37 145 37 400q0 154 -10 318.5t-31 402.5q-4 66 -9 130t-9 124q-4 111 -63.5 155.5t-155.5 44.5q-84 0 -211 -28q-90 -16 -109 -17q-14 0 -18 2q-2 -6 -4.5 -25.5t-2.5 -47.5z" />
<glyph unicode="^" d="M287 1044q0 -37 34.5 -60t78.5 -34.5t57 -7.5q8 41 30.5 126t40.5 136q18 55 41 56q25 0 53.5 -57.5t75.5 -182.5q29 -70 90 -70q31 0 63 13.5t53.5 29t27.5 19.5q-14 14 -47 80q-72 135 -140.5 225t-146.5 90q-35 0 -61 -18q-105 -68 -176.5 -169.5t-73.5 -175.5z" />
<glyph unicode="_" horiz-adv-x="724" d="M111 -53q0 49 68.5 87t254.5 38q90 0 182 -9q10 -90 -67.5 -119.5t-214.5 -29.5l-125 2q-63 0 -90 -8q-2 2 -5 13t-3 26z" />
<glyph unicode="`" horiz-adv-x="534" d="M102 1563q2 4 14.5 13t33 18.5t45.5 9.5q63 0 124.5 -85t112.5 -300q-43 -35 -84 -35q-68 0 -114 77.5t-89 204.5q-4 10 -18 49t-25 48z" />
<glyph unicode="a" horiz-adv-x="1060" d="M0 403q0 72 41 145t113 116q107 67 237 67h4q47 0 88 -8q2 23 2 65q0 45 -6 72q6 2 29.5 5t52.5 3q96 0 169 -49t73 -182l-2 -37q-10 -139 -10 -219q0 -211 59 -211q29 0 74 51q82 92 136 191.5t79.5 172t25.5 81.5h68q0 -27 -79 -204t-217 -329.5t-325 -152.5 q-96 0 -134 75.5t-38 208.5q0 57 2 86q-117 -117 -249 -117q-96 0 -144.5 48.5t-48.5 121.5zM219 457q0 -72 53 -72q37 0 89.5 35t97.5 82q8 78 14 116q-88 0 -171 -32.5t-83 -128.5z" />
<glyph unicode="b" horiz-adv-x="802" d="M0 504q0 219 35 649q20 295 20 360q0 57 -6 82q6 2 29.5 5.5t52.5 3.5q96 0 169 -49.5t73 -182.5l-2 -37q-43 -580 -43 -897v-28q49 143 121.5 247.5t171.5 104.5q61 0 90.5 -38t29.5 -103q0 -100 -63.5 -230.5t-174 -240t-243.5 -152.5q-45 -18 -94 -18q-166 0 -166 524 zM354 141q72 52 133.5 140t96 182t34.5 155q0 68 -40 68q-55 0 -104.5 -121t-84.5 -265t-35 -159z" />
<glyph unicode="c" horiz-adv-x="774" d="M0 297q0 47 8 90q23 135 92.5 217t155.5 115t168 33q51 0 86 -11q45 -14 70.5 -42.5t25.5 -80.5q0 -51 -33 -131q-20 0 -35.5 9.5t-15.5 11.5q2 4 5 20.5t3 32.5q0 66 -59 68h-7q-36 0 -78 -37q-46 -41 -71 -195q-8 -43 -8 -86q0 -118 79 -118h1q70 0 182.5 83.5 t215 193.5t133.5 167l40 -33q-94 -176 -221 -304t-258 -193.5t-241 -65.5q-109 0 -173.5 65.5t-64.5 190.5z" />
<glyph unicode="d" horiz-adv-x="1013" d="M0 442q0 74 46 148t122 117q98 53 213 53q57 0 119 -15q23 174 33 392.5t10 388.5q0 92 -2 100q0 3 16 3q22 0 74 -6q90 -11 161.5 -67.5t71.5 -179.5q0 -16 -4 -53q-6 -49 -26 -195q-29 -201 -45.5 -346t-16.5 -254q0 -190 64 -190q18 0 41 14q74 49 122 104.5 t72.5 99.5t24.5 48l49 -35q-35 -90 -84 -182t-168 -183q-107 -82 -262 -82q-17 0 -35 1q-84 6 -118 58t-34 145q0 53 11 125q-37 -66 -114 -120.5t-161 -54.5q-25 0 -49 7q-66 14 -98.5 57t-32.5 102zM221 492q0 -31 13.5 -47.5t37.5 -16.5q49 0 113 61.5t98 153.5h-12 q-85 1 -165 -25q-85 -28 -85 -126z" />
<glyph unicode="e" horiz-adv-x="794" d="M0 260q0 47 10 115q33 199 155 281.5t259 82.5q53 0 88 -10q45 -14 75.5 -53t30.5 -92q0 -59 -40 -127q-41 -65 -116 -89q-69 -22 -139 -22h-12q-4 -45 -4 -61q0 -125 76 -125q70 0 179.5 89t208.5 203.5t128 172.5l41 -33q-96 -180 -225 -314.5t-260 -206t-238 -71.5 q-100 0 -158.5 65.5t-58.5 194.5zM319 397q13 -1 25 -1q132 0 180 100q12 25 13 55q0 27 -14.5 45t-47.5 20h-10q-109 0 -146 -219z" />
<glyph unicode="f" horiz-adv-x="653" d="M0 516q0 313 15.5 644t21.5 370q12 125 20.5 176t30.5 84q20 31 57 31h5q18 0 57 -10.5t86 -41.5q66 -43 106 -114q55 -86 74 -215q10 -68 10 -119q0 -145 -63 -266q-33 -59 -82 -113q-16 -483 -16 -723q0 -213 8 -328q88 205 88 490q0 90 -8.5 168t-16.5 125t-10 59 q106 -14 284.5 -57t178.5 -45l-10 -39l-373 80q39 -227 39 -432q0 -393 -121 -524.5t-221 -145.5h-2q-86 2 -122 267t-36 679zM342 1040q62 90 78 207q0 2 2 47v11q0 42 -12 102q-15 68 -45 113l-5 -76q-14 -274 -18 -404z" />
<glyph unicode="g" horiz-adv-x="1009" d="M0 387q0 74 43 149.5t115 120.5q117 72 262 72q47 0 88 -8q-2 16 -6 66.5t-10 70.5q6 2 29.5 6t51.5 4q92 0 165 -58t85 -218l6 -109q141 82 261 142.5t153 76.5l19 -51q-35 -18 -160 -86.5t-266 -156.5l6 -80q2 -37 17 -246t15 -387q0 -551 -174 -553l-24 -2 q-111 0 -263.5 109.5t-295.5 424.5q-20 41 -21 90q0 215 439 529q-4 61 -5 94q-66 -66 -160 -118t-184 -52q-92 0 -139 48t-47 122zM223 449q0 -74 66 -74q49 0 118.5 39t116.5 90v2l-8 110q-90 0 -191.5 -35.5t-101.5 -131.5zM225 -201q0 -35 17 -67q51 -96 116.5 -163 t114.5 -67q59 0 66 105q4 143 4 237q0 182 -6 357q-311 -246 -312 -402z" />
<glyph unicode="h" horiz-adv-x="980" d="M0 524q0 135 10 312.5t23 332.5q22 263 22 357v8q0 57 -6 82q6 2 29.5 5t52.5 3q96 0 169 -49t73 -182l-2 -35q-35 -455 -43 -762q35 160 90 263.5t137 103.5q66 0 102.5 -64.5t52 -155t31.5 -235.5q14 -141 28.5 -209t47.5 -78q6 -2 12 -2q43 0 101 72q66 82 125 187.5 t59 111.5l39 -12q0 -10 -54.5 -132t-129 -224.5t-152.5 -102.5q-72 0 -104.5 97t-57.5 280q-20 145 -40.5 216.5t-63.5 71.5q-37 0 -54.5 -62.5t-33.5 -197.5q-25 -166 -49 -269t-84 -180q-58 -75 -157 -75h-5h-4q-164 0 -164 524z" />
<glyph unicode="i" horiz-adv-x="542" d="M0 336q0 109 27 299q14 96 14 131q0 16 -2 20q6 2 25.5 4.5t50.5 2.5q82 0 141 -33t59 -121q0 -23 -2 -35q-24 -154 -24 -256v-8q0 -143 59 -143q27 0 68 28q66 45 130 138.5t112.5 185.5t48.5 96l59 -22q-6 -12 -134 -307.5t-433 -295.5q-111 0 -155 86.5t-44 229.5z M45 1059q0 63 45 108t109 45q63 0 108 -45t45 -108t-45 -108.5t-108 -45.5q-64 0 -109 45t-45 109z" />
<glyph unicode="j" horiz-adv-x="595" d="M-307 -317q0 217 436 569q-4 86 -11 211t-12 176q-2 16 -7 66.5t-11 70.5q6 2 28.5 6t51.5 4q92 0 166 -59t86 -217l2 -47q102 68 191 119t141.5 77.5t66.5 32.5l25 -61q-15 -8 -71 -38t-149.5 -87t-197.5 -131l4 -41q2 -41 20.5 -280.5t18.5 -446.5q0 -545 -172 -547 l-25 -2q-111 0 -264 109.5t-297 424.5q-20 41 -20 91zM-176 -285q0 -37 14 -65q51 -96 116.5 -163t115.5 -67q59 0 65 105q4 152 4 248q0 190 -6 372q-309 -266 -309 -430zM51 1063q0 63 45 108.5t109 45.5q63 0 108 -45.5t45 -108.5t-45 -108.5t-108 -45.5q-64 0 -109 45 t-45 109z" />
<glyph unicode="k" horiz-adv-x="849" d="M0 520q0 133 10 308.5t23 330.5q22 263 22 361v8q0 51 -8 88q6 2 29.5 5t52.5 3q102 0 177 -58q66 -51 66 -174q0 -16 -1 -34q-35 -455 -43 -762q78 367 225 367q72 0 108.5 -44.5t36.5 -117.5q0 -96 -60 -212t-169 -214q0 -66 25.5 -147t117.5 -81q119 0 211 120 t146.5 261.5t54.5 159.5l35 -18q0 -25 -57.5 -176.5t-159 -282.5t-242.5 -131h-13q-53 0 -91 30q-43 34 -66.5 74.5t-23.5 46.5q-68 -231 -230 -231h-10h-3q-90 0 -126 137q-37 139 -37 383zM457 481q57 78 93 151t36 113q0 39 -35 39q-37 0 -54.5 -61t-33.5 -193z" />
<glyph unicode="l" horiz-adv-x="591" d="M2 649q0 289 35 707q12 123 20.5 174t30.5 84q20 31 59 31h5q18 0 57 -9.5t84 -40.5q59 -39 108 -114q53 -92 72 -215q10 -72 10 -123q0 -150 -63 -264q-37 -68 -90 -121q-6 -168 -6 -314v-88q4 -68 12 -94t26 -26q16 0 62 28q84 53 150.5 129t107.5 140.5t41 68.5 l57 -22q-8 -31 -94 -156t-203.5 -245t-234.5 -163q-31 -14 -68 -14q-6 -2 -20 -2h-2q-156 0 -156 649zM334 854q70 96 86 219q0 2 2 47v11q0 41 -12 101q-14 68 -45 114q-20 -272 -31 -492z" />
<glyph unicode="m" horiz-adv-x="1409" d="M0 311q0 100 29 310q4 29 13 111.5t9 135.5q0 41 -6 72q6 2 27.5 5t48.5 3q90 0 156.5 -53t66.5 -199l-2 -39q0 -20 -4 -53l16 45q14 35 31 66q16 29 23 35l16 16q10 10 27 18q8 4 18 4q4 0 6 3h4l4 -3h6q20 -4 33 -12q14 -12 23 -22l12 -23l14 -39q4 -14 9 -39 q4 -27 8 -75q4 -49 4 -72v-6q25 86 22 80q18 61 48 112q25 47 65 84q31 27 72 41l10 2q25 8 80 8q96 0 170 -50t74 -183l-3 -35q-4 -72 -16 -168q-14 -125 -14 -176q0 -82 37 -82q29 0 94 53q84 68 156.5 153t115.5 148.5t53 81.5l39 -8q0 -16 -101 -181t-246.5 -303 t-305.5 -138q-63 0 -90 48t-27 136q0 96 37 301q4 27 17.5 113t13.5 141q0 110 -61 110h-1q-12 0 -18 -2q-2 0 -2 -1v-1q-31 -10 -57 -36q-33 -37 -52 -76q-20 -43 -36 -107l-25 -125l-6 -34l-4 -19q-4 -8 -4 -12l-9 -15l-10 -10l-10 -4l-8 -2h-4q-12 0 -23 6l-10 8l-10 17 q-4 8 -4 12q-4 14 -9 39l-10 74l-6 71l-10 68q-2 8 -7 27.5t-12 29.5l-6 9l-6 -7l-14 -24l-25 -56l-18 -57q-18 -57 -31 -110l-39 -168l-10 -58q-41 -164 -189 -164q-82 0 -114.5 66t-32.5 184zM477 707v2v-2z" />
<glyph unicode="n" horiz-adv-x="679" d="M0 276q0 59 8 139.5t19 153.5q24 181 24 249v5q0 43 -6 76q6 2 26.5 5t47.5 3q90 0 157.5 -59.5t67.5 -218.5l-2 -41v-10q41 72 90 127t96 55q70 0 70 -131q0 -33 -10 -125q0 -16 -4 -45v-13q-4 -25 -9 -77q0 -47 3 -66l6 -20l2 -2l4 -2h2l6 2h4h2q0 2 4 2q2 2 5 2t5 2 l11 8q6 4 37 35q35 41 61 90q35 59 72 130t51 97l43 -20q-14 -29 -52 -102.5t-75 -137.5q-31 -59 -64 -98q-29 -33 -47 -47l-14 -11l-16 -8q-2 0 -11 -4h-6q0 -2 -1 -2h-1h-8h-2h-4h-6q-14 0 -25 8q-14 6 -20 21q-8 10 -11.5 25.5t-5.5 19.5q-4 29 -4 80q2 51 10 149 q4 49 5 72q0 45 -3 61q-2 8 -10 13q-6 4 -16 -7l-12 -12q-14 -18 -29 -49q-10 -18 -27 -55q-31 -80 -39 -107q-27 -78 -49 -166l-18 -67q-43 -164 -185 -164q-80 0 -113.5 63.5t-33.5 173.5z" />
<glyph unicode="o" horiz-adv-x="798" d="M0 420q0 76 25 155q43 135 140 218.5t208 83.5q43 0 73 -11q84 -27 137.5 -107.5t61.5 -187.5h6q51 10 70 15q16 2 67 18l17 6l16 4l8 4l9 3l14 6l31 12q12 4 26 10q16 8 25 10l22 11q4 2 9.5 4t9.5 6l18 6l31 16l25 -43l-29 -20q-4 -4 -8 -6l-8 -4l-19 -13l-20 -12 l-25 -16q-23 -10 -27 -15q-8 -6 -15 -9t-13 -7l-15 -8l-8 -4l-8 -4l-16 -9l-17 -8l-71 -30q-31 -12 -76 -27l-33 -8q-6 -37 -18 -74q-43 -133 -140.5 -218t-206.5 -85q-39 0 -75 12q-92 29 -146.5 118t-54.5 208zM291 330q0 -66 22.5 -107t63.5 -41q49 0 99 56.5t77 144.5 q8 25 16 66q-41 -4 -63 -3q-6 0 -17.5 1.5t-25.5 5.5q-14 2 -43 10q-35 10 -72 37l-16 12q-4 -10 -21 -51q-20 -63 -20 -131zM420 635q4 -8 16 -21q16 -16 35 -24q10 -8 23 -10q4 0 12 -3.5t14 -3.5q25 -6 49 -6q-8 43 -28.5 69t-51.5 26q-28 0 -69 -27z" />
<glyph unicode="p" horiz-adv-x="757" d="M0 -172q0 219 35 649q20 295 20 361q0 57 -6 82q6 2 29.5 5t52.5 3q96 0 169 -49.5t73 -182.5l-2 -37l-2 -43l-7 -81q109 229 244 229q62 0 91.5 -37t29.5 -102q0 -88 -51 -203t-141.5 -219.5t-200.5 -163.5q-6 -152 -6 -287q0 -279 37 -299q-41 -149 -197 -149h-2 q-166 0 -166 524zM338 143q74 49 135.5 138.5t96 183.5t34.5 156q0 69 -40 69h-1q-55 0 -104 -120.5t-84 -265t-35 -159.5l-2 2v-4z" />
<glyph unicode="q" horiz-adv-x="921" d="M6 446q0 59 25.5 122t72.5 110q115 113 306 129q0 70 -7 100q6 2 28 5t50 3q96 0 170 -53t74 -196q0 -29 -2 -43l-21 -277l293 361l27 -27l-256 -350q41 -211 41 -385q0 -197 -43 -330t-98 -199q-31 -39 -70 -55q-12 -6 -43 -12q-33 -4 -45 -4q-162 0 -162 473 q0 176 29 520q-84 -78 -201 -78q-80 0 -124 53.5t-44 132.5zM211 524q0 -18 2 -26q12 -64 55 -64q49 0 121 78q12 143 14 188q-72 -20 -132 -64t-60 -112zM674 -307q61 160 61 348q0 145 -35 278q-27 -369 -27 -567q0 -32 1 -59z" />
<glyph unicode="r" horiz-adv-x="880" d="M61 905q6 2 27 9.5t52.5 14.5t64.5 7q63 0 101 -37q33 -32 33 -103q0 -11 -1 -24q-2 -35 29.5 -44t58.5 -9q15 1 29 1q83 0 159 -39q90 -46 91 -189q0 -14 -5 -52q-4 -41 -16 -118q-31 -233 -31 -322q0 -111 39 -111q25 0 70 48q72 76 129 222t92 285.5t35 151.5 q2 0 10 2t21 2q37 0 37 -21q0 -6 -3 -14q-2 -10 -60 -227t-211 -430q-147 -205 -316 -205h-13q-88 4 -124.5 81t-36.5 208q0 84 11 178t32 225q14 96 24 187q-135 2 -206.5 24.5t-95.5 56t-24 82.5q0 14 5 52l2 49q0 35 -9 59z" />
<glyph unicode="s" horiz-adv-x="741" d="M0 745q0 96 58 155q58 58 132 87q61 24 72 24q2 0 2 -1q-14 -35 -14 -76q0 -63 32.5 -141t90.5 -172q80 45 178 45q76 0 146.5 -22.5t121.5 -49.5t51 -29l9 -49q-13 6 -60 27.5t-116.5 41t-135.5 19.5q-96 0 -151 -49q49 -74 76 -109q117 -172 174 -276t57 -193 q0 -106 -107 -170q-106 -53 -188 -53q-29 0 -57 6h-2q-6 0 -9 2q-27 4 -51 15q-29 8 -71 35q-47 31 -78 69q-39 49 -58 111l-2 16l-2 4v4l-2 9l-2 6v8q-2 6 -2 16q-6 31 -6 66q0 74 16 137q18 63 54 129l4 6q-33 45 -68 99q-92 147 -92 253zM182 123l6 -53l13 -50 q10 -39 39 -73q18 -20 55 -45l12 -6q18 -8 41 -9q35 0 45 37q8 25 8 53q0 68 -41 136.5t-141 201.5q-16 -35 -26 -79q-11 -54 -11 -105v-8z" />
<glyph unicode="t" horiz-adv-x="942" d="M-20 1094l10 2l26 4l97 14l63 8q23 4 72 8l8 3q16 240 16 368q0 68 -6 98q6 2 29.5 5.5t52.5 3.5q96 0 169 -49.5t73 -182.5l-2 -37l-10 -180l57 2q23 2 63 2l56 2h43h37l4 -63q-2 0 -11.5 -3t-23.5 -5l-43 -7l-53 -8l-66 -8l-68 -8q-8 -162 -12 -356v-193 q0 -199 14.5 -296t63.5 -97q27 0 61 29q59 49 132 161.5t126.5 215t67.5 132.5l45 -32q0 -23 -96 -215q-97 -192 -245 -350q-136 -145 -298 -145q-14 0 -29 1q-94 4 -132 169t-38 441q0 213 19 508l-68 -4q-45 0 -65 -2h-96h-29h-8z" />
<glyph unicode="u" horiz-adv-x="1003" d="M0 422q0 111 27 301q14 96 14 131q0 16 -2 20q6 2 25.5 4.5t50.5 2.5q82 0 141 -33t59 -121q0 -23 -2 -35q-30 -199 -30 -299v-6q0 -113 41 -113q31 0 77 50q66 68 90.5 176t24.5 217q0 33 -2 54.5t-2 27.5q6 2 29.5 5t52.5 3q96 0 170 -49t74 -183l-2 -36l-15 -156 q-14 -147 -14 -203q0 -82 29 -82q25 0 79 64q68 80 110 193.5t60.5 206.5t18.5 110q4 2 13 4t24 2q32 0 32 -21q0 -6 -2 -12q-2 -10 -41.5 -190.5t-172 -358.5t-310.5 -178q-192 0 -192 327v17q-99 -153 -250 -153h-17q-188 8 -188 313z" />
<glyph unicode="v" horiz-adv-x="841" d="M0 791q0 2 45 13t90 11q88 0 150.5 -51t72.5 -182q23 -297 54 -396q35 31 65 68q43 53 72 113q33 66 57 145q0 4 4 16q-14 6 -75 45q-39 29 -68 60q-33 35 -55 86q-6 16 -11 55q0 27 11 62q20 57 77 90q44 28 94 28h3q18 0 26 -2q33 -6 64 -24q23 -16 47 -47 q14 -20 29 -58q6 -18 8 -32.5t4 -22.5q2 -18 2 -53v-27q-2 -10 -2 -24q-6 -66 -19 -127q0 -2 36 -13.5t71 -11.5q115 0 147 127l41 -12q0 -13 -16 -52.5t-61 -76.5t-127 -37q-47 0 -103 14q-25 -98 -53 -168q-35 -82 -80 -145q-43 -59 -96 -107q-39 -33 -80 -57 q-66 -41 -160 -57q-10 -2 -31 -2q-104 0 -155 111.5t-62.5 253.5t-11.5 337q0 115 -4 150zM492 770q0 -16 2 -25q8 -31 34 -59q18 -25 52 -51q33 -25 49 -35l14 78l2 20q2 6 2 21q2 6 2 18t-2 19q0 41 -16 63q-12 25 -37 31q-4 2 -14 2q-16 0 -41 -10q-29 -16 -41 -41 q-6 -14 -6 -31z" />
<glyph unicode="w" horiz-adv-x="1392" d="M0 893q10 4 47 12t80 8q90 0 155.5 -52t71.5 -187l6 -170q4 -145 12.5 -208t33.5 -63q23 0 73 76q74 113 111 230q-12 133 -17 157q6 2 25.5 10.5t51.5 15.5t65 7q70 0 122 -43t68 -147q39 -256 76 -346q27 23 55 65q31 43 56 104q27 72 36 132l5 16q-53 25 -70 35 q-39 20 -66 45q-37 33 -53 72q-10 23 -14 51v14q0 10 4 39q16 55 63 86q40 32 89 32q8 0 16 -1q31 0 57 -17q25 -10 47 -37q16 -20 29 -47q6 -16 14 -49q6 -25 6 -47q2 -8 2 -24v-21q0 -57 -6 -113q4 -2 22.5 -4t41.5 -2q70 0 129 34t82 124l41 -12q0 -12 -22.5 -62.5 t-77 -95.5t-146.5 -45q-37 0 -76 8q-14 -92 -35 -154q-27 -82 -59 -135q-33 -57 -78 -102q-27 -31 -63 -55q-57 -41 -138 -64q-14 -4 -38 -4q-94 0 -145.5 105.5t-78.5 277.5q-49 -123 -138 -208t-228 -101q-8 -2 -25 -2q-90 0 -133 81t-52 193.5t-9 288.5q0 125 -4.5 192.5 t-20.5 106.5zM1010 721q0 -20 4 -29q8 -23 33 -51q33 -29 51 -41l45 -27q2 12 4 30t2 42q2 4 2 19v16q0 23 -2 35q-8 37 -19 53q-14 20 -36 25h-9q-18 0 -41 -13q-23 -12 -32 -39q-2 -6 -2 -20z" />
<glyph unicode="x" horiz-adv-x="866" d="M0 66l33 38l37 46l49 57q14 14 27.5 31.5t29.5 35.5q23 27 68 76l18 23q-31 72 -61 162q-51 131 -80 196.5t-60 106.5q4 4 26 20t55.5 30.5t72.5 14.5q63 0 124.5 -50t115.5 -167l32 -78l56 56q25 23 43 40t30 27l68 60l59 49l48 34l40 31l35 -47l-39 -31l-43 -36 l-55 -50l-63 -61l-70 -70l-72 -75l-4 -5q23 -55 60 -153q33 -88 49 -114.5t53 -35.5q14 -49 14 -88q0 -55 -26.5 -80.5t-71.5 -38.5q-10 -2 -31 -2q-78 0 -142.5 70t-121.5 193q-37 -45 -53 -68l-55 -68l-45 -59q-33 -43 -35 -45l-31 -41z" />
<glyph unicode="y" horiz-adv-x="1058" d="M0 379q0 111 27 301q14 96 14 131q0 16 -2 20q6 2 24.5 4.5t47.5 2.5q82 0 143 -33t61 -119q0 -25 -2 -37q-30 -199 -30 -299v-6q0 -113 41 -113q31 0 77 50q66 68 90.5 175t24.5 216l-4 82q8 2 37 8t65 6q96 0 166 -57.5t70 -208.5l-2 -289q102 111 185 209t129 157.5 t59 75.5l41 -24l-353 -447q70 -293 70 -512q0 -160 -33 -258t-72.5 -140t-70.5 -54q-39 -18 -82 -19q-115 0 -157 234.5t-42 611.5q0 121 4 322q-47 -133 -127 -219.5t-200 -86.5q-111 0 -155 86.5t-44 229.5zM848 80q0 -354 20 -526q41 125 41 272q0 109 -19.5 202 t-41.5 154v-102z" />
<glyph unicode="z" horiz-adv-x="786" d="M-82 -119q0 168 354 402q-18 20 -30.5 32.5t-16.5 14.5l-10 57q0 -2 69.5 32t139.5 86t104 118q25 43 25 67q0 29 -37 29q-39 0 -113.5 -27.5t-193.5 -79.5q-39 -16 -66 -16q-57 0 -87.5 45t-42 93t-11.5 65q14 0 61.5 19.5t61.5 25.5q113 49 206 80.5t171 31.5 q129 0 160 -108q12 -43 12 -82q0 -135 -108.5 -232.5t-250.5 -162.5q35 -8 66 -21q131 78 270.5 145.5t234.5 108.5t122 51l14 -45q-25 -10 -111 -50t-213 -104.5t-245 -138.5q120 -63 205 -181t85 -308q0 -246 -106.5 -339t-230.5 -103h-9q-91 0 -209 72q-124 76 -254 354 q-16 37 -16 69zM49 -86q0 -27 12 -51q45 -90 126 -159t147 -69t88 76q22 70 22 150q0 186 -129 368q-266 -186 -266 -315z" />
<glyph unicode="{" horiz-adv-x="917" d="M225 631q0 4 2 6q4 8 16.5 15t18.5 12q59 27 109.5 79t96.5 190t58 384q16 293 183 293q45 0 92 -19.5t77.5 -40t39.5 -26.5q-55 -6 -81 -43t-37.5 -113t-23.5 -262l-12 -152q-16 -231 -195 -323q80 -41 133.5 -120t61.5 -204l12 -151q12 -186 23.5 -262t37 -113 t81.5 -43q-8 -6 -39 -26.5t-78 -40t-92 -19.5q-166 0 -183 293q-12 246 -58 385t-96 190t-110 80q-2 2 -16.5 9t-18.5 16q-2 2 -2 6z" />
<glyph unicode="|" d="M410 293q0 260 32 715q20 348 21 432q0 68 -6 100q6 2 26.5 6t46.5 4q86 0 153 -66.5t67 -242.5l-2 -47l-5 -68q-33 -612 -32 -899q0 -311 34 -344q-10 -41 -43.5 -74.5t-74.5 -54t-70 -20.5q-80 0 -113.5 149.5t-33.5 409.5z" />
<glyph unicode="}" horiz-adv-x="692" d="M0 -283q8 -6 39 -26.5t78 -40t92 -19.5q168 0 184 293q12 246 58.5 385.5t95.5 190.5t108 80q2 2 16.5 9t18.5 15q2 2 2 6t-2 6q-4 8 -16 15.5t-19 11.5q-57 27 -107 79t-96 190.5t-59 383.5q-16 293 -184 293q-45 0 -92 -19.5t-78 -40t-39 -26.5q57 -6 83 -44t37 -116.5 t23 -273.5l11 -135q18 -229 194 -324q-80 -41 -132 -120.5t-62 -202.5l-11 -135q-12 -195 -23 -274t-37 -116.5t-83 -44.5z" />
<glyph unicode="~" d="M285 485q-6 140 40 196t134 56q41 0 94 -11t104 -24q119 -29 164 -28q66 0 88 43q-20 -133 -63 -187.5t-107 -54.5q-31 0 -63.5 9.5t-87.5 27.5q-61 20 -96 29.5t-70 9.5q-82 0 -137 -66z" />
<glyph unicode="&#xa7;" d="M41 680q0 53 51 103.5t137 109.5q-29 47 -28 113q0 104 69 249q4 6 17.5 32t31.5 52q78 117 187 154q61 20 119 20q63 0 110 -25.5t70 -72.5q29 -59 29 -155q0 -35 -3.5 -63t-5.5 -36l-59 -12q0 55 -8 116.5t-45 69.5q-41 8 -79 -22.5t-67 -81.5q-70 -127 -69 -213 q0 -76 52 -115t126 -53t194 -25q119 -10 185.5 -23.5t99.5 -47.5q39 -41 39 -82q0 -55 -50 -103.5t-138 -109.5q27 -45 26 -113q0 -104 -69 -252q-20 -41 -48 -82q-80 -117 -186 -155q-61 -20 -119 -21q-63 0 -110 25.5t-70 72.5q-29 63 -29 162q0 37 2.5 61.5t4.5 32.5 l61 11q0 -59 7 -118.5t46 -68.5q39 -8 76 23t68 82q70 127 69 213q0 76 -52 115.5t-127 54t-194 24.5q-117 10 -183 23.5t-99 48.5q-39 41 -39 82zM279 651q0 -16 30 -24q39 -11 103.5 -17t132.5 -10q178 -8 256 -25q6 6 18 13q72 45 104.5 70.5t32.5 41.5t-32 25 q-41 10 -102.5 16.5t-125.5 8.5q-168 8 -262 26l-18 -12q-137 -84 -137 -113z" />
<glyph unicode="&#xad;" horiz-adv-x="1015" d="M205 524q0 53 65.5 92t233.5 39q117 0 297 -24q10 -25 10 -56q0 -72 -78 -98t-205 -26q-51 0 -141 4q-74 4 -98 4q-39 0 -62 -6q-4 6 -13 26.5t-9 44.5z" />
<glyph unicode="&#xb1;" d="M164 653q0 49 72.5 91t267.5 55q2 127 22 338q18 6 37 6q68 0 97.5 -92.5t35.5 -249.5q154 -4 338 -21q6 -21 6 -37q0 -119 -342 -135q0 -43 -4 -116l-2 -138q0 -53 6 -75q-4 -2 -16 -7.5t-29 -5.5q-51 0 -93 74t-52 268l-254 4q-63 0 -78 -4q-2 4 -7 16.5t-5 28.5z M201 -12q0 57 92 101t338 44q174 0 387 -22q6 -18 6 -37q0 -78 -114.5 -106.5t-303.5 -28.5q-82 0 -209 4q-94 4 -123 4q-51 0 -61 -4q-2 4 -7 16t-5 29z" />
<glyph unicode="&#x2000;" horiz-adv-x="910" />
<glyph unicode="&#x2001;" horiz-adv-x="1821" />
<glyph unicode="&#x2002;" horiz-adv-x="910" />
<glyph unicode="&#x2003;" horiz-adv-x="1821" />
<glyph unicode="&#x2004;" horiz-adv-x="607" />
<glyph unicode="&#x2005;" horiz-adv-x="455" />
<glyph unicode="&#x2006;" horiz-adv-x="303" />
<glyph unicode="&#x2007;" horiz-adv-x="303" />
<glyph unicode="&#x2008;" horiz-adv-x="227" />
<glyph unicode="&#x2009;" horiz-adv-x="364" />
<glyph unicode="&#x200a;" horiz-adv-x="101" />
<glyph unicode="&#x2010;" horiz-adv-x="1015" d="M205 524q0 53 65.5 92t233.5 39q117 0 297 -24q10 -25 10 -56q0 -72 -78 -98t-205 -26q-51 0 -141 4q-74 4 -98 4q-39 0 -62 -6q-4 6 -13 26.5t-9 44.5z" />
<glyph unicode="&#x2011;" horiz-adv-x="1015" d="M205 524q0 53 65.5 92t233.5 39q117 0 297 -24q10 -25 10 -56q0 -72 -78 -98t-205 -26q-51 0 -141 4q-74 4 -98 4q-39 0 -62 -6q-4 6 -13 26.5t-9 44.5z" />
<glyph unicode="&#x2012;" horiz-adv-x="1015" d="M205 524q0 53 65.5 92t233.5 39q117 0 297 -24q10 -25 10 -56q0 -72 -78 -98t-205 -26q-51 0 -141 4q-74 4 -98 4q-39 0 -62 -6q-4 6 -13 26.5t-9 44.5z" />
<glyph unicode="&#x2013;" horiz-adv-x="1433" d="M205 524q0 53 110.5 92t394.5 39q198 0 502 -24q17 -25 17 -56q0 -72 -132 -98t-346 -26q-86 0 -238 4q-126 4 -166 4q-66 0 -105 -6q-7 6 -22 26.5t-15 44.5z" />
<glyph unicode="&#x2014;" horiz-adv-x="2457" d="M205 524q0 53 221.5 92t788.5 39q396 0 1004 -24q34 -25 34 -56q0 -72 -263.5 -98t-692.5 -26q-173 0 -477 4q-250 4 -331 4q-132 0 -210 -6q-13 6 -43.5 26.5t-30.5 44.5z" />
<glyph unicode="&#x202f;" horiz-adv-x="364" />
<glyph unicode="&#x205f;" horiz-adv-x="455" />
<glyph unicode="&#x25fc;" horiz-adv-x="901" d="M0 0v901h901v-901h-901z" />
</font>
</defs>
</svg>
